WinMobile / Софт для Windows Mobile / Шкурки и темы / TCPMP WVGA skin by netdrg build (WinMobile)

TCPMP WVGA skin by netdrg build

Плеер для WVGA девайсов с пальцеориентированным интерфейсом.

Скин от netdrg. Основан на версии 0.72RC1

Скачать / Download [2.41 Mb]

Системные требования: Нет данных
Необходим .NetCF не ниже: Нет данных
Разрешение экрана: WVGA (480x800)
Тип установки: Нет данных
Автор/Разработчик: netdrg
Оф. сайт/Источник: http://forum.xda-developers.com/showthread.php?t=634951&highlight=tcpmp
Язык: ENG, RUS ...
Как бесплатно качать с файлообменников

Информация

Посетители, находящиеся в группе Гости, не могут оставлять комментарии в данной новости.
  1. Что то я не понял, во первых файл на http://forum.xda-developers.com/showthread.php?t=634951&high
    light=tcpmp весит почти 6 мегабайт.
    Во вторых вышло обновление http://forum.xda-developers.com/showpost.php?p=5685536&postc
    ount=1 а тут по этому поводу никакой информации!
  1. спасибо! первый TCPMP, каторый заработална HTC HD2

    нечайно убрал скин на стандартный и теперь не могу поставить пальцеориентированный , который был по началу установки. может , кто подскажет, как вернуть его. переустановка не помогает.
  1. Огромное спасибо!!! Все работает и звук и картинка! Наконец-то. Перепробовала несколько TCPMP, но запустился только этот, на остальных писало Unexpected program failure. Pleas send "сrash.txt
  1. .....а flv читает?
  1. dimon7329,

    У меня не идет под Asus M10
  1. Наконец то нашёл подходящий плеер под свой Garmin-asus M10 smile
  1. Супер, все видео играет, HTC HD2
  1. Ребят, ни один FLV файл не идет, перепробывал штуки четыре FLV кодека, ни один не пошел (TCPMPflvplugin0.4.4 , myppc.ru-1750_flvplugin_4 , ffvp6_v054_xscale и др.)

    Вот такие файлы:

    Формат файла: Формат файла: .flv (Flash Video)
    Тип потока: Видео
    Длительность: 00:04:40.440
    Кодек: AVC
    Кодек/Профиль: Main@L3.0
    Размеры изображения: 640 x 360 (16:9)
    Частота кадров: 25.000 fps
    Размер потока: 23.9 MiB (86%)
    Битрейт: 714 Kbps

    еще

    Формат файла: .flv (MPEG-4)

    Тип потока: Видео
    Длительность: 00:04:03
    Кодек: AVC
    Кодек/Профиль: High@L3.1
    Кодек/ID: avc1
    Размеры изображения: 1280 x 720 (16:9)
    Частота кадров: 25.000 fps
    Размер потока: 58.0 MiB (94%)
    Битрейт: 1 999 Kbps

    Кто нибудь подскажет, где рыть дальше??? Может надо кодек AVC отдельно где-то брать?

    Машинка Acer S200, последний Core Player вращает их без проблем.....
  1. Огромное Спасибо excl
  1. Спасибо! Работает превасходно.
    wink
  1. наконец то нашёл что так долго искал
  1. эта версия работает прекрасно, пробовал предыдущие версии около года назад - видео висло по-черному...
  1. Спасибо!! пашет отлично на HTC HD2 WM 6.5.Pro
  1. Acer s200. Работает нормально, но не увидел фильм более 2 Гб, прочитал его как папку.
  1. na toshe 900 video надо ставить DirectDraw огромное СПАСИБО!!!!
  1. огромное СПАСИБО!!!! на HD2 идет!!!! теперь не нужно конвертировать DVD ))))))))))))))).
  1. на HTC HD2 Работает.
    Маленькие минусы: некоторые настройки из меню можно было бы вынести на лицевую панель (благо места хватает), нет настройки яркости, константности и т.д., нет ассоциаций поддерживаемых файлов (только вручную, в реестре), нет управления с гарнитуры.
    А в общем, разработчикам респект!
  1. на Garmin-Asus полёт нормальный! thumbup
  1. Спасибо!
  1. Красотааааааа, теперь то что надо!
  1. Отлично идет на HTC HD.. И в отличии от Кореплеера идет с АС3 и без тормозов))) Смотрю неконвертированое видео))
  1. Автору спасибо!

    Прога пошла на HTC HD2.

    Видео с AC3 идет на ура.
  1. отлично пашет!!
  1. на acer S200 работает
  1. Единственный плеер, который схавал 2 аудио канала и у которого поддержка ac3! перепробовал несколько версий этого плеера, половино на HTC HD2 выдало ошибку. эту версию поставил поверх правильной. запустилось видео только в режиме GDI (по умолчанию стоял DirectDraw) thumbup
  1. У меня на HTC HD2 незапускается....пишет отчёт о доставке отправить...ошибки
  1. не работает программа....
    неожиданный сбой программы ...требует crash.txt..... и тд. что делать?
    мне видеопроигриватель нужен , чтобы была возможность просмотра с субтитрами
    подскажите плиииззз что делать?
  1. щас посмотрим что он потянет ...
  1. Zeratyl, я утешился и жду))). Это будет супер!
  1. Скачал поставил радуюсь!!!!! времени дома смотреть фильму нет так хоть в метро.Acer s200 WM 6.5 Спасибо!!!!!!!!!